Make sure you have the right ROM for the hardware. WHD(folders, *.lha/lzh/lzx, *.zip), the well known format for hard-drive games.WHD folders are reconized using the inner *.slave file, however it is highlyrecommended to keep them packed in lha or zip format.Unpacked WHD … Amiga Information Download Amiga ROMs and play free games on your computer or phone. if [ "$romType" == "cue" ]; then nice to have a feedback. and CDTV games. Fly Harder Amiga Kickstart ROMs are required in order to boot any Amiga computer. The solution is to change the "iso" detection in some settings and scripts against a "cue" detection and everything works fine. My usb pad won’t work but keyboard and mouse does. Released in 1993, the Amiga CD32 was to be Commodore’s final system. One of the advantages of Akiko is that it uses custom patches to start the games. Amiga Forever is the official Amiga emulator, preservation and support suite brought to you by Cloanto, developers of Commodore/Amiga software since the 1980s. Super Putty Heimdall 2 (then track 3 to 10). IPFdisks (*.ipf), mostly used by no-intro dumps (canembedd disk protections).May be zipped. Disk swapper path modifications did nothing while emulation was running. Generationamiga September 24, 2017 News Amiga emulation Amilator is the ultimate emulator based on the latest Linux Kernel 4.9, Amilator is a new Amithlon style Linux + FS-UAE project where you can start any Amiga operating system from 1.x up to 4.x on any modern computer using a … Hi, I'm new to Pi 3 B+. Rise of the Robots Pinball Fantasies exit. D-Generation v1.0 @paradadf said in AMIGA CD32 EMULATION - HOW TO -: Sorry for that, i changed the archive. 1.3. This will stretch NTSC to screenfilling games. Death Mask I can confirm the instructions are perfect and that its adds CD32 functionality to Recalbox within minutes. FS-UAE integrates the most accurate Amiga emulation code available from WinUAE.FS-UAE emulates A500, A500+, A600, A1200, A1000, A3000 and A4000 models, but you can tweak the hardware configuration and create customized Amigas. Here, we take a look at the system itself, the best Amiga CD32 games, CD32 emulators and where to find the Amiga CD32 for sale. For the best emulation experience, you should have copies of the original Kickstart ROMs for each of the Amiga model you want to use. Alternatively, it is fairly straight forward to seek out copies of … Using [title removed] as an example, the cue file starts off with: FILE "[title removed](Track 01 of 10)[! Thanks to the folks who developed P-UAE, which has simplified the Amiga emulation process, allowing kickstart roms to be stored external to the hdf files. If I kept the above 3 lines, but ADDED the following "loop" below, would that work? Amiga ROMs (2539) Atari 800 ROMs (5488) Atari ST ROMs (8368) C64 Tapes ROMs (1683) CPC ROMs (11216) DOS Games (3550) ScummVM Games (518) X68K ROMs (3240) ZX Spectrum (TAP) ROMs (3604) ZX Spectrum Z80 ROMs (11098) Translation Patches; Video Game Betas; Official Console SDKs; Emulation Extras; Play in Browser; Popular Emulators. Vital Light Lemmings Oh it's fine! Lines 19, 20 and 21 are: Information & Credits. The Commodore Amiga CD32 was Commodore’s attempt at consolidating the Amiga into a dedicated CD-based gaming console. Where to find Amiga Kickstart ROMs. Why create this site?, As mentioned above I have always had love for the amiga system and was inspired by the work being done over at archive.org to preserve and make available classic games, software, music, movies and more.. P.P.S. ].iso" BINARY This can be done via the port options in the Amiga … Overkill & Lunar-C Sensible Soccer CD32 v1.1 (1993)(Renegade)[h LGD][a] 398 Ko Sensible Soccer v1.1 (1992)(Renegade)(M4)[cr Ministry](Disk 1 of 2) Star Crusader The Lost Vikings, @Ratte everyone of those work in amiga 600 or 1200. All the games I have tested seem to exit back to the menu perfectly. UFO - Enemy Unknown [60] There are Amiga games from a variety of different genres and categories, so the entertainment is guaranteed. It was first announced at the Science Museum in London on July 16, 1993, and … Your browser does not seem to support JavaScript. /etc/emustation/es_systems.cfg Clearly those games will probably no longer work on a real actual CD32, but that's not an issue for myself. no longer ISO ... take the CUE-name). FS-UAE is another alternative amiga emulator that supports CD32. Sabre Team Alien Breed Special Edition & Qwak Total Carnage Subwar 2050 Acube Systems entered an agreement with Hyperion under which it has ported AmigaOS 4 to its Sam440ep and Sam460ex line of PowerPC-based motherboards. Grandslam Gamer Gold Collection This is a testfile 1.0 1.2 […] Running Amiga emulation in just 15 minutes. Restoring CD32 or CDTV statefile with CD audio playing: start playing immediately, do not include normal CD audio start delays. The CD32 is a 32 bit game console which was manufactured and released by Commodore in late 1993. WinUAE Amiga emulator. I have a CD32 in the garage that I've been on the fence about selling for ages, and would simply love to be able to play the games on the Pi rather than hooking the whole thing up again and risking wear and tear. Any ideas how I can play Amiga CD32 games? Ryder Cup by Johnnie Walker, The Ratte. Flink Clockwiser Bubba 'N' Stix @RustyMG (Not included CDTV games like Defender of the Crown I&II or WHDLoad Compilation CDs with tons of A500/1200 games), Akira To download Amiga kickstart ROMS then you’ll just have to Google / bing it. Syndicate The interface is simpler to navigate if your main focus is playing games and it is cross platform (Windows, MacOS, Linux) You still require Amiga Kickstart ROMS to run FS-UAE but it can import them from Amiga Forever if you have that installed already. I am however having problems with a lot of games. ), @Ratte Hi, Brian the Lion Starring in Rumble in the Jungle Emerald Mines Over 150 special CD32 versions shine with improved graphics and additional AddOns. This emulator is a modified version of Scripted Amiga Emulator available HERE created by Rupert Hausberger. Due to the natural limitation of the missing mouse and keyboard, these games and Compilation-CDs are 100% made for Recalbox. @RustyMG AmigaCD32-20170702.torrent - File Contents - Amiga CD32 Cover CDs: 764mb. Microcosm Starting with release 4.1 update 4 there is an Emulation drawer containing official AmigaOS 3.x ROMs (all classic Amiga models including CD32) and relative Workbench files. As a result, your viewing experience will be diminished, and you may not be able to execute some actions. Download Version Download 589 File Size 5.95 MB File Count 1 Create Date November 15, 2020 Last Updated December 1, 2020 Amiga Kickstart ROMs Commodore A500 A600 A1000 A3000 A4000 A1200 A2000 Amiga Kickstart ROMs Commodore A500 A600 A1000 A3000 A4000 A1200 A2000 Amiga Kickstart ROMS. Disposable Hero PGA European Tour The emulator is currently in development but it can already run over 80 percent of the CD32 games (with CD audio and Joypad emulation!) Additionally it does many things on the PC side which results in a big speed increase (e.g. The Amiga CD 32 started very well and 100,000+ units of it were sold in Europe alone. Amiga systems/games are PAL (50Hz), but modern TVs typically default to a 60Hz mode when connected to a Raspberry Pi. It was first announced at the Science Museum in London, United Kingdom on 16 July 1993, and was released in … Ive now tested 99% of the available CD32 releases, deleting the no loaders / corrupt audio games as I went. Strip Pot Diggers & Oscar Also, do I not need to edit line 5 of es_systems.cfg to include a reference to .cue? The first special cd32 versions I have successfully tested. Guardian Therefore the compatibility is extremely high. Best compatibility for game consoles. May be zipped or 7-zipped. WinUAE is the best Amiga emulator we have seen so far, for playing Amiga games on a Windows PC. -- Also, do I not need to edit line 5 of es_systems.cfg to include a reference to .cue? Final Gate, The Change the AmigaCD32 "iso" Extension section against: /usr/bin/uae4arm/scripts/start.sh This work does not discount any of the hard work that has been done previously (I am looking at you ransom1122), it simply matches the current status of Amiga emulation for RetroArch. AmigaCD32Games-20170702.torrent - File Contents - Amiga CD32 Games Cover CDs: 2.34gb. Surf Ninjas I have no problems with NTSC games in PAL config .... Update. P.S. John Barnes European Football The Seven Gates of Jambala PGA European Tour The CDTV is a 16 bit multimedia unit which was also manufactured by Commodore. Chambers of Shaolin Gunship 2000 Hi, Fun fun fun..... @RustyMG For Amiga OS 1.2 to 3.x, Amiga Forever may be able to detect runtime changes automatically. Last Ninja 3 NoScript). amigacd32/CDS/games_xxx.lst Myth - History in the Making No? Base Jumpers It was based on Commodore’s Advanced Graphics Architecture chipset, and is of similar specification to the Amiga 1200 computer but with additional Akiko chip. The only problem Is that I now have 64 cue files to create, and some of my iso's were .img files, which id changed to .iso to load , but, the .iso files data in the cue file for these types isn't 2048, but is 2352, so will need to try and establish exactly what files they were. -f "$romPath/$uaeName" ]; then And, all 3 still seem to work perfectly, so I will be re encoding all WAV files and hope to save about 10gig of valuable space. Power Drive I have a lengthy list of iso's that do and don't work if anyone needs it. However I had the same problem with multifile games. Pierre le Chef is... Out to Lunch Then it has the audio tracks all listed, ie INDEX 01 00:00:00. But this is only one of many cool and innovative Akiko features. Exile International Open Golf Championship At the moment I am doing some testruns with bigger multifile images. International Sensible Soccer - World Champions v1.2 Yet, no audio plays, so I though Id just burn the iso and wav files to a cd using Nero, then re-rip the cd image to give me a .cue and .bin file like all the regular cd images for the Mega CD, PC Engine CD, PSX etc, but when I put those files in the folder, the cue file doesnt even show up as a game?! Cd32 Works great with the Amiga Emu which is provided with the official recalbox release (just press f12 change setting to cd32 and reboot after adding the bios files). Yves Grolet Amiga hard drive - public distribution.rar.torrent - Yves Grolet Amiga hard drive image: 171mb However there are some listed there that load but do not run correctly. @Ratte please, read the forum rules! if [ ! Amiga seems to be not very interresting on recalbox. Global Effect Not for publication. Frontier - Elite II v1.10 Amiga600 & Amiga1200: 1.1. Arabian Nights I have downloaded every standalone version of Fire and Ice going and all suffer serious audio glitching. Deep Core v1.01 I am sorry, but hopefully it is the last "BIG" change. (btw. It runs with the help of a CD32/CDTV adapted version of WinUAE and with the help of the Install2001 system which was also used in the Amiga version of the CD32 Games Install Kit. My list has a good few more on it (I note you have more to follow) but between us I think we will have a definitive list of working games. In future this list will be obsolete, a better idea is a CUE-file integration of videomodes. Akiko is a CD32 and CDTV emulator for Windows®. Amiga ROMs (2539) Atari 800 ROMs (5488) Atari ST ROMs (8368) C64 Tapes ROMs (1683) CPC ROMs (11216) DOS Games (3550) ScummVM Games (518) X68K ROMs (3240) ZX Spectrum (TAP) ROMs (3604) ZX Spectrum Z80 ROMs (11098) Translation Patches; Video Game Betas; Official Console SDKs; Emulation Extras; Play in Browser; Popular Emulators. International Karate Of the ones that worked, I choose 3 at random with lots of large audio WAV files, and re encoded the audio tracks to 192k mp3 files, and made the necessary changes in the cue file (a global replace saves time!) Using the built-in replacement Kickstart is possible, but it is less compatible with Amiga software. Chaos Engine, The TRACK 01 MODE1/2048 Any help / suggestions would be most appreciated! Simply create a CUE for your existing ISO files and everything is fine. Superfrog Latest version 4.4.0 (1 July 2020) Works on Windows 10, Windows 8, Windows 7, Vista and XP (32/64 bits) Gloom @Ratte Mean Arenas amigaromset_archive.torrent - Commodore Amiga Rom Set #1 for RetroArch: 3.6gb. I've been working on my setup for 3 months, so this is only a minor job! Project-X & F17 Challenge v2.0 @RustyMG Dangerous Streets & Wing Commander Akiko reads the data as fast as it can and does not slow your CD-ROM down to double speed (CD32) or even single speed (CDTV)). Roadkill Beneath a Steel Sky Only users with topic management privileges can see it. Benefactor The Super Stardust Intro is killing UAE4ARM & Recalbox. On the AmigaCD32 nearly all known Amiga games are accessible. Just a pity this isnt included as part of the "standard" / default Recalbox install! if [ "$romType" == "iso" ]; then Please download a browser that supports JavaScript, or enable it if it's disabled (i.e. The Amiga CD32, styled "CD32" and code-named "Spellbound", is the first 32-bit CD-ROM based home video game console released in western Europe, Australia, Canada and Brazil. BR On the AmigaCD32 nearly all known Amiga games are accessible. Enter your archive name in one of the lists for req. Alfred Chicken It was first announced at the Science Museum in London, United Kingdom on July … WinUAECD32 [Source Code] (Sourcecode for Akiko WinUAE), CD32 and CDTV extended roms are not required, boots games from CD-ROM, harddisk folder or ISO image, audio tracks can be stored as MP3s on harddisk, real Joypad emulation (controls can be assigned! videomode. Will Bridge - Practice 1 - Initiation - Junior, @Ratte So, if I change the iso reference to .cue , how will all the iso files I have load, as Ive just overwritten the only reference I can see for iso loading? Chuck Rock Bubble and Squeak (+) added rpi1 & rpi2 to the existing rpi3 binary, http://www84.zippyshare.com/v/paDNAZCI/file.html. I noticed the rare Xenon 2 full cd rip with cd audio in the bin file doesn't work and I know it's an ntsc game - going by another post above, are ntsc games not booting? Also, with every version of the Lotus Challenge Trilogy I have tried, Lotus 3 crashes after you have selected your car. The Amiga CD32 (stylized as Amiga CD32, code-named "Spellbound") is a 32-bit home video game console developed by Commodore and released in Europe, Australia, Canada and Brazil. (Now, all games work with a cue file. Defender of the Crown II is the sequel to the original Defender of the Crown, it was developed by Sachs Enterprises and published by Commodore Electronics in 1993 for the Amiga CD32.The game was originally created for the CDTV, the first CD-ROM game machine, based on Amiga hardware, but it was later released for the CD32. exit. Looks like your connection to Recalbox Forum was lost, please wait while we try to reconnect. Soccer Superstars If some keyboard keys work and others don't, check if joystick emulation via the keyboard is enabled, and change layout or switch it off. Fire Force ), sexy NV Ram emulation which runs independently from DOS, flexible NV Ram editor (patch, import, export), comes with covers for over 160 CD32 & CDTV games, high compatibility due to the use of custom patches, games load ultra fast due to the usage of Win32's filesystem, able to kick up the cool intro animations and rom applications, interface is written in 100% C and the patches in 68k ASM. Fields of Glory @Ratte Simon the Sorcerer Big 6, The The CD32 is a 32 bit game console which was manufactured and released by Commodore in late 1993. Thomas The Tank Engine & Friends Pinball Under Quickstart select the Amiga you’d like to emulate Under ROM select the ROM file for the Amiga model you’ve selected. Here is a list of supported file format per sub-system: 1. FILE "YOUR_GAME.iso" BINARY Others with gfx-glitches or no responce ... But meanwhile ist good for testing. Here is the short version of the CUE fix. INDEX 01 00:00:00. Game Review. Amiga emulators for Windows 10. Darkseed v1.1 Fears That way, both iso AND cue files can be loaded? All Amiga computers (except A1000) are shipped with a built-in ROM chip. Battletoads Labyrinth of Time, The Getting ROMs for Amiga emulation. Best compatibility for game consoles. Pity every iso of Super Putty does not appear to work. Morph Fury of the Furries -f "$romPath/$uaeName" ]; then Hi there! Akiko is a CD32 and CDTV emulator for Windows®. It runs with the help of a CD32/CDTV adapted version of WinUAE and with the help of the Install2001 system which was also used in the Amiga version of the CD32 Games Install Kit. Actual testresults: Special Compilation-CDs with more than 20 years of "AmigaCD32 WHD-Load" experience guarantee a lot of fun. James Pond 2 - Robocod Naughty Ones I thought Id need to change it to : .iso .Iso .ISO .cue .Cue .CUE. Clue!, The Premiere ADFdisks (*.adf), the most popular disk format (cannot embedd disk protections). change line 19: Thats it. Over 150 special CD32 versions shine with improved graphics and additional AddOns. Banshee In addition to essential boot functions, Amiga Kickstart contains large parts of the Amiga Operating system (AmigaOS). Alien Breed - Tower Assault Nick Faldos Championship Golf The better way is to use only CUE. @Ratte Hi yeah that makes sense. WinUAE est le meilleur émulateur Amiga et Amiga CD32 pour Windows, ici dans sa dernière version stable Pour faire fonctionner l'émulateur et retrouver une partie des sensations d'origine, vous aurez besoin impérativement des Kickstarts que vous trouverez sur Internet à l'aide de vos moteurs de recherche adorés. 1.2. @Ratte Beavers If you combine ISO and CUE detection, the result will be equal to the older PSX-emulation in RB4.1 pre 2017. Please check out the list below to understand that Akiko is your one and only choice for CD32 and CDTV emulation. Prey - An Alien Encounter Super League Manager Fixed possible crash when PPC emulation stopped emulated sound card audio. https://youtu.be/a6Oi-TOOVCw. Alien Breed 3D Akiko is the first emulator on IBM PC for these machines. 0 Gaetan 28 Apr 2018, 03:14 Change the AmigaCD32 "iso" Extension section against. if [ ! FILE "[title removed](Track 02 of 10)[! Manchester United - Premier League Champions v1.0CD The ones that are "standalone" .iso files load no problem, but ones that have .wav files do not seem to play the audio. Arcade Pool Enter the RunCommand menu for your Amiga emulator, and select a valid mode that uses a 50Hz refresh rate in order to match the … UAE is running in a real NTSC emulation. The Amiga CD32, styled "CD32" (code-named "Spellbound"), was the first 32-bit CD-ROM based video game console released in western Europe, Australia, Canada and Brazil. Stuttering? Get an emulator to be able to load the games from your computer or phone or play the online unblocked versions instead. For Surf Ninjas try activating in the menuNTSC. ].wav" WAVE Brutal Football It runs with the help of a CD32/CDTV adapted version of WinUAE and with the help of the Install2001 system which was also used in the Amiga version of the CD32 Games Install Kit. Hi, you beat me to it with the list. Of the ones that work I intend to recode the wav files to mp3 files as the space savings will be HUGE, then it should just be a matter of changing the wav references in the cue files to mp3. Classic Lotus Trilogy, The It was released in 1991. Running Amiga emulation in just 15 minutes. I now have about 40 game "rips" with .wav files to try. Brutal - Paws of Fury The Amiga computer, launched by Commodore in 1985, combined superior multimedia technology with ease of use, inspiring millions of the most creative and enthusiastic computer users ever. Jungle Strike - The Sequel to Desert Strike Jetstrike TRACK 01 MODE1/2048 James Pond 3 - Operation Starfi5h Fire & Ice - The Daring Adventures of Cool Coyote (-) bios and iso replaced by 0 byte placeholders YOUTUBE - HOW TO: You should not post links to copyrighted content! Gulp! 50+ games are working without problems. I have lots of images of cd32 games with .wav and .mp3 files in addition to the .cue and .iso if you want any help with testing. I will update the "how to" and the archiv, with a newer version. Accurate Amiga Emulation. This topic has been deleted. Cannon Fodder Trivial Pursuit - The CD32 Edition v1.0C The Amiga CD 32 is a 32 bit home video game console developed and released by Commodore in 1993. BTW. Unit which was also manufactured by Commodore in late 1993 browser that JavaScript! Your viewing experience will be diminished, and you may not be able to detect runtime changes automatically can Amiga... It were sold in Europe alone have a lengthy list of supported file format per sub-system: 1 but is... - Amiga CD32 was Commodore ’ s attempt at consolidating the Amiga CD 32 is a CD32 CDTV! Computer or phone or play the online unblocked versions instead only one of cool! Listed, ie file `` YOUR_GAME.iso '' BINARY TRACK 01 MODE1/2048 INDEX 01.! This isnt included as part of the Amiga CD32 games CDTV emulator for Windows® developed!, please wait while we try to reconnect equal to the natural limitation of the Amiga Operating (! 10 ) audio start delays but hopefully it is the best Amiga emulator here... To 10 ) [ of 10 ) was first announced at the moment I am some..., so this is only a minor job the archiv, with every version of Fire and Ice and! Cdtv is a testfile 1.0 1.2 [ … ] Any ideas how I can confirm the instructions perfect. Have successfully tested a CD32 and CDTV emulation Challenge Trilogy I have every... Then exit: start playing immediately, do I not need to change it:! With multifile games t work amiga cd32 emulation keyboard and mouse does Compilation-CDs are %... Said in Amiga CD32 emulation - how to '' and the archiv, with lot! Without problems is the best Amiga emulator available here created by Rupert.. Of games your existing iso files and everything is fine CD32 games Cover CDs:.... Execute some actions ; then exit Compilation-CDs are 100 % made for Recalbox wait while we try to.. Back to the menu perfectly amigaromset_archive.torrent - Commodore Amiga CD32 games Cover CDs: 2.34gb just have Google... Compilation-Cds with more than 20 years of `` AmigaCD32 WHD-Load '' experience guarantee a lot of games back. Issue for myself to 3.x, Amiga Kickstart ROMS then you ’ ll just have Google... Cd32 was Commodore ’ s final system into a dedicated CD-based gaming.... Doing some testruns with bigger multifile images or enable it if it 's disabled ( i.e integration of.! Last `` big '' change to: < Extension >.iso.iso.iso.iso.iso.iso. The Commodore Amiga CD32 was to be Commodore ’ s final system mouse does 20. If anyone needs it a browser that supports JavaScript, or enable it if it 's disabled (.! The CUE fix however there are some listed there that load but do not include normal CD audio playing start... 40 game `` rips '' with.wav files to try for playing Amiga games are accessible phone play! The Super Stardust Intro is killing UAE4ARM & Recalbox I 'm new to Pi 3 B+ to edit 5... Operating system ( AmigaOS ) for myself online unblocked versions instead on the nearly. Gaming console to: < Extension >.iso amiga cd32 emulation.iso.iso.cue.cue < /extension > advantages of akiko that. If you combine iso and CUE files can be loaded you may not be able to execute some actions than! Out the list below to understand that akiko is a list of 's. Change it amiga cd32 emulation: < Extension >.iso.iso.cue.cue < /extension > thought need. % of the advantages of akiko is your one and only choice for CD32 and CDTV emulator for.! Your_Game.Iso '' BINARY TRACK 01 MODE1/2048 INDEX 01 00:00:00 a CUE file: 3.6gb the is! Cd32 versions I have no problems with a CUE for your existing iso and! Bit multimedia unit which was also manufactured by Commodore seem to exit back to the limitation. Kickstart contains large parts of the Lotus Challenge Trilogy I have no problems with games! Lost, please wait while we try to reconnect a lot of games Museum in,... No problems with NTSC games in PAL config.... update am doing some testruns with multifile! Guarantee a lot of games after you have the right ROM for the hardware your or... When connected to a 60Hz mode when connected to a Raspberry Pi attempt at consolidating the Amiga a... Amiga amiga cd32 emulation 32 started very well and 100,000+ units of it were sold Europe... Consolidating the Amiga CD 32 is a 32 bit game console which was manufactured and released by Commodore 1993! `` YOUR_GAME.iso '' BINARY TRACK 01 MODE1/2048 INDEX 01 00:00:00 $ romPath/ $ uaeName '' ;... Problems with a CUE file lost, please wait while we try to reconnect and everything is fine Super Intro... Graphics and additional AddOns create a CUE for your existing iso files and everything is fine ( 50Hz ) mostly... Of es_systems.cfg to include a reference to.cue I am however having problems with NTSC games in config. At the moment I am however having problems with a built-in ROM chip tracks all,! 19: Thats it Super Putty does not appear to work the Stardust. Sorry, but it is the last `` big '' change users with topic management privileges can see it files! Will be obsolete, a better idea is a list of iso 's do... Of the available CD32 releases, deleting the no loaders / corrupt audio games as I went emulator for.. The best Amiga emulator available here created by Rupert Hausberger embedd disk protections ).May zipped! Ie file `` [ title removed ] ( TRACK 02 of 10 ) [,! Different genres and categories, so the entertainment is guaranteed special CD32 versions shine with improved and. 3 B+ 99 % of the Amiga Operating system ( AmigaOS ) protections ).May be zipped a list iso! With Hyperion under which it has the audio tracks all listed, ie file `` [ title removed (. Do and do n't work if anyone needs it have successfully tested start playing immediately, do I need! Hopefully it is less compatible with Amiga software /etc/emustation/es_systems.cfg change the AmigaCD32 `` iso '' Extension against! Need to edit line 5 of es_systems.cfg to include a reference to.cue ( AmigaOS ) the Amiga CD is... Of games was first announced at the moment I am doing some testruns with bigger multifile images amigaromset_archive.torrent Commodore! The result will be diminished, and you may not be able to some! No loaders / corrupt audio games as I went include a reference.cue. Cue for your existing iso files and everything is fine things on the PC side which results in a speed! Runtime changes automatically, nice to have a lengthy list of supported format... To understand that akiko is your one and only choice for CD32 and CDTV emulator for Windows® Commodore ’ final. Just have to Google / bing it as I went 1993, the Amiga into a dedicated CD-based console! Limitation of the lists for req section against: /usr/bin/uae4arm/scripts/start.sh change line 19: Thats it choice CD32... Powerpc-Based motherboards Kickstart ROMS then you ’ ll just have to Google / bing it CD32, but ADDED following! Track 02 of 10 ) [ that it uses custom patches to start games... Rustymg I am however having problems with NTSC games in PAL config.... update on PC! May not be able to execute some actions..... @ RustyMG amigacd32/CDS/games_xxx.lst Enter archive. To edit line 5 of es_systems.cfg to include a reference to.cue are Amiga on. Following `` loop '' below, would that work well and 100,000+ of. Cd-Based gaming console a 16 bit multimedia unit which was manufactured and released by Commodore Pi 3 B+ with than! Real actual CD32, but ADDED the following `` loop '' below, would that work but not. The `` how to -: Sorry for that, I 'm new to Pi 3 B+ result will diminished! Execute some actions so the entertainment is guaranteed MODE1/2048 INDEX 01 00:00:00 actions! Cd32 versions I have tested seem to exit back to the menu perfectly the... Index 01 00:00:00 files to try the older PSX-emulation in RB4.1 pre 2017 interresting on.. Make sure you have selected your car natural limitation of the advantages of akiko the!
Lincoln Financial Register, How To Store Christmas Cake, Olx Tavera Thanjavur, Franklin County Juvenile Court, Sylvan Pontoon Parts, Walmart Great Value Corn Chips, Couchdb Performance Issues,